#TITLE:Simon 1994RD;
#SUBTITLE:Contra Hard Corps;
#ARTIST:Konami;
#TITLETRANSLIT:;
#SUBTITLETRANSLIT:;
#ARTISTTRANSLIT:;
#CREDIT:;
#BANNER:Simon 1994RD.png;
#BACKGROUND:Simon 1994RD-bg.png;
#LYRICSPATH:;
#CDTITLE:BrianachiTITLE.png;
#MUSIC:Simon 1994RD.mp3;
#OFFSET:0.100;
#SAMPLESTART:32.785;
#SAMPLELENGTH:12.000;
#SELECTABLE:YES;
#BPMS:0.000=182.120;
#STOPS:41.000=0.159
,136.500=0.180
,168.000=0.161
,263.500=0.161
;
#BGCHANGES:;
// cache tags:
#FIRSTBEAT:1.000;
#LASTBEAT:263.875;
#SONGFILENAME:Songs/Music V.I.P ^_^/Simon 1994RD (Brianachi)/Simon 1994RD.sm;
#HASMUSIC:1;
#HASBANNER:1;
#MUSICLENGTH:87.544;
// end cache tags

//---------------dance-single - Heavy----------------
#NOTES:
     dance-single:
     Heavy:
     Hard:
     10:
     1.000,1.000,1.000,0.640,1.000,609.000,150.000,56.000,4.000,0.000:

0000
0000
0000
0000
0020
0030
0020
0000
0000
0030
0200
0000
0000
0000
0000
0020
,
0000
0000
0000
0000
,
0000
0000
0000
0000
0000
0330
0000
0000
1001
0000
0000
0000
0110
0000
0000
0000
,
1010
0100
0110
0000
1001
0000
0110
0000
,
1100
0010
1001
0000
0110
0000
1001
0000
,
0110
0100
1001
0000
0110
0000
1001
0000
,
0011
0100
0010
0100
0110
0000
0000
0000
1000
0100
0010
0001
0100
0010
1000
0010
,
0100
0001
0010
0001
0010
0100
0010
0001
1000
0001
0100
0010
1000
0100
1000
0100
,
0010
0001
0100
0001
0010
0100
1000
0100
0001
0100
1000
0001
0100
0010
0100
0010
,
1000
0010
1000
0001
0010
0001
0100
0001
0010
0001
1000
0100
0010
0001
0100
0002
,
0000
0000
0000
0000
0003
0000
1000
0100
0010
0002
0000
0000
0020
0000
0033
0000
,
0000
0000
1000
0100
0010
0100
0020
0000
0000
0000
0230
0000
0000
2300
0001
3100
,
0000
0010
0001
0000
0010
0000
0100
1000
0000
0010
0000
0000
0001
0000
0000
0000
,
0000
0000
0100
0010
1000
0001
0010
0000
0000
0000
0100
0000
0000
1000
0001
0000
,
0010
0000
0100
0000
1000
0000
0001
0010
0000
2000
0000
0000
0200
0000
3300
0000
,
0000
0000
0001
0010
0100
0010
0200
0000
0000
0000
0320
0000
0000
0032
1000
0013
,
0000
0100
1000
0000
0100
0000
0010
0001
0000
0100
0000
0000
1010
0000
0000
0000
,
0000
0000
0010
0100
0001
1000
0100
0000
0000
0000
0110
0000
0000
0001
2000
0000
,
0000
0000
0000
0000
3000
0000
0020
0000
0000
0000
0000
0030
1000
0000
0001
0010
,
0001
0100
0000
0000
0000
0000
0010
0000
0010
0100
0000
0100
1000
0000
1010
0000
,
0010
0100
0000
0100
0002
0000
0023
0000
0000
0000
0030
0000
0001
0000
1000
0100
,
1000
0010
0000
0000
0000
0000
0100
0000
0100
0010
0000
0010
1000
0000
1010
0000
,
1000
0100
0000
0100
2000
3000
0100
0010
0001
0100
0001
1000
0001
0010
0001
0100
,
0001
0100
0001
1000
0001
0100
0010
1000
0010
0100
0010
1000
0001
0010
0001
0100
,
0001
1000
0100
0010
0100
1000
0001
0100
0001
0100
0001
0010
0100
1000
0100
0010
,
0100
1000
0001
0100
0001
0010
0001
1000
0100
0010
0100
1000
0001
0100
0010
1000
,
0001
0100
0010
1000
0100
0000
0220
0330
0100
0010
0110
0000
0010
0001
1001
0000
,
1001
0011
0110
0110
1001
0101
1010
0110
,
1001
0000
1010
0000
0101
0000
2002
3003
0010
0100
1100
0000
0100
0010
1010
0000
,
0011
0110
1010
1010
0110
0011
0101
1010
,
0110
0000
1001
0000
1001
0000
0202
0303
0010
1000
1001
0000
0001
0100
0110
0000
,
0110
0101
1001
1001
0110
1100
0011
1001
,
0110
0000
0011
0000
1100
0000
0220
0330
1000
0010
1010
0000
1000
0001
0011
0000
,
0101
1001
0011
0011
1001
0101
1100
0022
,
0000
0033
1001
0000
0110
0000
1010
0100
,
0110
0000
1001
0000
0110
0000
1100
0010
,
1001
0000
0110
0000
1001
0000
0110
0100
,
1001
0000
0000
0000
0110
0000
0000
0000
1001
0000
0000
0000
0011
0100
0010
0100
,
0110
0000
0000
0000
0001
0010
0001
0100
0001
1000
0010
0100
0010
1000
0001
0100
,
0001
0010
0100
0010
1000
0010
0001
0100
0001
1000
0010
0100
0010
1000
0010
1000
,
0100
0010
0100
1000
0100
0010
0001
1000
0100
0010
0100
0010
0001
0100
0010
1000
,
0010
0100
0010
1000
0001
0010
0100
0010
0001
0100
0001
0100
0020
0000
0000
0000
,
0030
0000
1000
0100
0010
0002
0000
0000
0020
0000
0033
0000
0000
0000
1000
0100
,
0010
0100
0020
0000
0000
0000
0230
0000
0000
2300
0001
3100
0000
0010
0100
0000
,
0010
0000
0100
1000
0000
0010
0000
0000
0101
0000
0000
0000
0000
0000
0100
0010
,
1000
0001
0010
0000
0000
0000
0110
0000
0000
1000
0001
0000
0010
0000
0100
0000
,
1000
0000
0001
0010
0000
2000
0000
0000
0200
0000
3300
0000
0000
0000
0001
0010
,
0100
0010
0200
0000
0000
0000
0320
0000
0000
0032
1000
0013
0000
0100
1000
0000
,
0100
0000
0010
0001
0000
0100
0000
0000
1001
0000
0000
0000
0000
0000
0010
0100
,
0001
1000
0100
0000
0000
0000
0110
0000
0000
0001
2000
0000
0000
0000
0000
0000
,
3000
0000
0020
0000
0000
0000
0000
0030
1100
0000
0001
0010
0001
0100
0000
0000
,
0000
0000
1000
0000
1000
0010
0000
0010
0001
0000
1001
0000
1000
0010
0000
0100
,
0002
0000
0023
0000
0000
0000
0030
0000
0110
0000
1000
0100
0001
0100
0000
0000
,
0000
0000
0100
0000
0100
0010
0000
0010
1000
0000
1010
0000
1000
0100
0000
0100
,
2000
3000
0100
0010
0001
0100
0001
1000
0001
0010
0001
0100
0001
0100
0001
1000
,
0001
0100
0010
1000
0010
0100
0010
1000
0001
0010
0001
0100
0001
1000
0100
0010
,
0100
1000
0001
0100
0001
0100
0001
0010
0100
1000
0100
0010
0100
1000
0001
0100
,
0001
0010
0001
1000
0100
0010
0100
1000
0001
0100
0010
1000
0001
0100
0010
1000
,
0100
0000
0220
0330
0100
0010
0110
0000
0010
0001
1001
0000
1001
0000
0011
0000
,
0110
0110
1001
0101
1010
0110
1001
1010
,
0101
0000
2002
3003
0010
0100
1100
0000
0100
0010
1010
0000
0011
0000
0110
0000
,
1010
1010
0110
0011
0101
1010
0110
1001
,
1001
0000
0202
0303
0010
1000
1001
0000
0001
0100
0110
0000
0110
0000
0101
0000
,
1001
1001
0110
1100
0011
1001
0110
0011
,
1100
0000
0220
0330
1000
0010
1010
0000
1000
0001
0011
0000
0101
0000
1001
0000
,
0011
0000
0000
0000
0011
0000
0000
0000
1001
0000
0000
0000
0101
0000
0000
0000
1100
0000
0000
0000
0022
0000
0000
0000
0000
0000
0000
0000
0033
0000
0000
MMMM
;
